3XGB | Bird Box
3XGB for
Wordpress
2019/01/17
|
|
by Akimoto

Bird Box

 

 

Director: Susanne Bier
Writers: Eric Heisserer (screenplay), Josh Malerman (novel)
Stars: Sandra Bullock, Trevante Rhodes, John Malkovich

Five years after an ominous unseen presence drives most of society to suicide, a mother and her two children make a desperate bid to reach safety.


Downloading Info

One-click to download

PASSWORD (If necessary): www.3xplus.info
Recovery Record: 5%

Format : Matroska
File size : 8.25 GiB
Duration : 2 h 4 min
Width : 1 920 pixels
Height : 800 pixels
Display aspect ratio : 2.40:1
Frame rate : 24.000 FPS

General
Unique ID : 5378000546619139746625769706291071948 (0x40BC3E6125EF00C13BA7CC043F60BCC)
Format : Matroska
Format version : Version 4 / Version 2
File size : 8.25 GiB
Duration : 2 h 4 min
Overall bit rate : 9 494 kb/s
Encoded date : UTC 2018-12-22 14:57:44
Writing application : mkvmerge v7.6.0 (‘Garden of Dreams’) 64bit built on Feb 8 2015 15:12:28
Writing library : libebml v1.3.1 + libmatroska v1.4.2

Video
ID : 1
Format : AVC
Format/Info : Advanced Video Codec
Format profile : High@L4.1
Format settings, CABAC : Yes
Format settings, ReFrames : 5 frames
Codec ID : V_MPEG4/ISO/AVC
Duration : 2 h 3 min
Bit rate : 8 702 kb/s
Width : 1 920 pixels
Height : 800 pixels
Display aspect ratio : 2.40:1
Frame rate mode : Constant
Frame rate : 24.000 FPS
Color space : YUV
Chroma subsampling : 4:2:0
Bit depth : 8 bits
Scan type : Progressive
Bits/(Pixel*Frame) : 0.236
Stream size : 7.52 GiB (91%)
Writing library : x264 core 157 r2932+2 (master: 303c484 / tmod: 1b88d0a) [X86_64]
Encoding settings : cabac=1 / ref=5 / deblock=1:-3:-3 / analyse=0x3:0x133 / me=umh / subme=11 / psy=1 / psy_rd=1.05:0.15 / mixed_ref=1 / me_range=48 / chroma_me=1 / trellis=2 / 8x8dct=1 / cqm=0 / deadzone=6,6 / fast_pskip=0 / chroma_qp_offset=-3 / threads=25 / lookahead_threads=6 / sliced_threads=0 / nr=0 / decimate=0 / interlaced=0 / bluray_compat=0 / constrained_intra=0 / bframes=10 / b_pyramid=2 / b_adapt=2 / b_bias=0 / direct=3 / weightb=1 / open_gop=0 / weightp=2 / keyint=250 / keyint_min=24 / scenecut=40 / intra_refresh=0 / rc_lookahead=60 / rc=crf / mbtree=0 / crf=17.0 / qcomp=0.70 / qpmin=0 / qpmax=69 / qpstep=4 / vbv_maxrate=62500 / vbv_bufsize=78125 / crf_max=0.0 / nal_hrd=none / filler=0 / ip_ratio=1.25 / pb_ratio=1.20 / aq=3:0.70
Language : English
Default : Yes
Forced : No

Audio #1
ID : 2
Format : AC-3
Format/Info : Audio Coding 3
Mode extension : CM (complete main)
Format settings, Endianness : Big
Codec ID : A_AC3
Duration : 2 h 4 min
Bit rate mode : Constant
Bit rate : 384 kb/s
Channel(s) : 6 channels
Channel positions : Front: L C R, Side: L R, LFE
Sampling rate : 48.0 kHz
Frame rate : 31.250 FPS (1536 spf)
Bit depth : 16 bits
Compression mode : Lossy
Stream size : 342 MiB (4%)
Title : ITA
Language : Italian
Default : Yes
Forced : Yes

Audio #2
ID : 3
Format : E-AC-3
Format/Info : Enhanced Audio Coding 3
Format settings, Endianness : Big
Codec ID : A_EAC3
Duration : 2 h 3 min
Bit rate mode : Constant
Bit rate : 448 kb/s
Channel(s) : 6 channels
Channel positions : Front: L C R, Side: L R, LFE
Sampling rate : 48.0 kHz
Frame rate : 187.500 FPS (256 spf)
Compression mode : Lossy
Stream size : 397 MiB (5%)
Title : ENG
Language : English
Default : No
Forced : No

Text #1
ID : 4
Format : UTF-8
Codec ID : S_TEXT/UTF8
Codec ID/Info : UTF-8 Plain Text
Duration : 2 h 3 min
Bit rate : 0 b/s
Count of elements : 17
Stream size : 499 Bytes (0%)
Title : Forced
Language : Italian
Default : Yes
Forced : Yes

Text #2
ID : 5
Format : UTF-8
Codec ID : S_TEXT/UTF8
Codec ID/Info : UTF-8 Plain Text
Duration : 2 h 3 min
Bit rate : 49 b/s
Count of elements : 1451
Stream size : 44.8 KiB (0%)
Title : Italian
Language : Italian
Default : No
Forced : No

Text #3
ID : 6
Format : UTF-8
Codec ID : S_TEXT/UTF8
Codec ID/Info : UTF-8 Plain Text
Duration : 1 h 56 min
Bit rate : 53 b/s
Count of elements : 1454
Stream size : 45.5 KiB (0%)
Title : English
Language : English
Default : No
Forced : No

Text #4
ID : 7
Format : UTF-8
Codec ID : S_TEXT/UTF8
Codec ID/Info : UTF-8 Plain Text
Duration : 1 h 59 min
Bit rate : 61 b/s
Count of elements : 1727
Stream size : 53.4 KiB (0%)
Title : English (SDH)
Language : English
Default : No
Forced : No

Text #5
ID : 8
Format : UTF-8
Codec ID : S_TEXT/UTF8
Codec ID/Info : UTF-8 Plain Text
Duration : 2 h 3 min
Bit rate : 44 b/s
Count of elements : 1423
Stream size : 40.0 KiB (0%)
Title : Dutch
Language : Dutch
Default : No
Forced : No

Text #6
ID : 9
Format : UTF-8
Codec ID : S_TEXT/UTF8
Codec ID/Info : UTF-8 Plain Text
Duration : 2 h 3 min
Bit rate : 43 b/s
Count of elements : 1395
Stream size : 39.8 KiB (0%)
Title : French
Language : French
Default : No
Forced : No

Text #7
ID : 10
Format : UTF-8
Codec ID : S_TEXT/UTF8
Codec ID/Info : UTF-8 Plain Text
Duration : 2 h 3 min
Bit rate : 47 b/s
Count of elements : 1421
Stream size : 43.0 KiB (0%)
Title : German
Language : German
Default : No
Forced : No

Text #8
ID : 11
Format : UTF-8
Codec ID : S_TEXT/UTF8
Codec ID/Info : UTF-8 Plain Text
Duration : 2 h 3 min
Bit rate : 42 b/s
Count of elements : 1431
Stream size : 38.3 KiB (0%)
Title : Spanish
Language : Spanish
Default : No
Forced : No

Text #9
ID : 12
Format : UTF-8
Codec ID : S_TEXT/UTF8
Codec ID/Info : UTF-8 Plain Text
Duration : 2 h 3 min
Bit rate : 47 b/s
Count of elements : 1441
Stream size : 42.6 KiB (0%)
Title : Spanish
Language : Spanish
Default : No
Forced : No

BUY PREMIUM WHEN U DOWNLOAD !!

Hey, dude, we worked so hard, so buy we a beer.
THANKS!!


あなたがダウンロードしたときにプレミアムを購入!
私たちは一生懸命働いたので、私たちはビールを買います。
感謝!!


當你下載購買優惠!!
嘿,伙計,我們辛苦工作,所以給我們買啤酒吧。
謝謝!!

 

Maybe you’ll like…

Loading…

Number of View :596

2 Comments

  1. Akimoto
    |
    |

    To BabyBear ^^

    YES, INDEED!!
    This film has kept me in a tense state in the course of my watch, and it’s really nice. I’m glad you like it, too.

  2. |
    |

    蒙上你的眼(バード・ボックス)這影片好看!好棒!
    謝謝AKimoto管理員的分享

Leave a Comment

Japeness Bear, Daddy, Movie and More...

Age Verification

By clicking enter, I certify that I am over the age of 18 and will comply with the above statement.

Enter

Or

Exit
Always enjoy responsibily.